[720p] 【猫和老鼠:迷失之龙】1.7G2014美国动画.喜剧.家庭电影

2014美国动画大片【猫和老鼠:迷失之龙】蓝光720p.BRRip.XviD.AC3中文字幕1.7G

◎译  名 猫和老鼠:迷失之龙
◎片  名 Tom and Jerry: The Lost Dragon
◎年  代 2014
◎国  家 美国
◎类  别 动画/喜剧/家庭
◎语  言 英语
◎IMDB评分 7.1/10 from 72 users  
◎文件格式 X264 + DTS
◎视频尺寸 1280x720
◎文件大小 1CD 1.55 GiB
◎片  长 56mn 41s
◎导  演 Spike Brandt
◎主  演 Kelly Stables ....Athena / Puffy (voice)
Vicki Lewis ....Drizelda (voice)
Jim Cummings ....Haldorf (voice)
Laraine Newman ....Elf Elder's Wife (voice)
Greg Ellis ....Tin (voice) (as Gregg Ellis)
Jess Harnell ....Pan (voice)
Richard McGonagle  ....Alley (voice)
Wayne Knight  ...The Elf Elder (voice)
Dee Bradley Baker ...Buster / Elf Boy (voice)

◎简  介 

善良的巫女雅典娜收养了很多受伤的动物,其中包括汤姆和杰瑞,可是由于雅典娜巫女的身份使得她受到精灵的排挤,只能独身住在小木屋中。这时,雅典娜的阿姨,一个邪恶的巫女,想通过龙蛋获得强大的力量,从而报复将她驱逐的村民,但是阴差阳错汤姆捡到了龙蛋,故事又会如何发展呢?

  • Video
  • ID                                       : 1
  • Format                                   : AVC
  • Format/Info                              : Advanced Video Codec
  • Format profile                           : High@L4.1
  • Format settings, CABAC                   : Yes
  • Format settings, ReFrames                : 5 frames
  • Codec ID                                 : V_MPEG4/ISO/AVC
  • Duration                                 : 56mn 41s
  • Bit rate                                 : 2 327 Kbps
  • Width                                    : 1 280 pixels
  • Height                                   : 720 pixels
  • Display aspect ratio                     : 16:9
  • Frame rate mode                          : Constant
  • Frame rate                               : 23.976 fps
  • Color space                              : YUV
  • Chroma subsampling                       : 4:2:0
  • Bit depth                                : 8 bits
  • Scan type                                : Progressive
  • Bits/(Pixel*Frame)                       : 0.105
  • Stream size                              : 944 MiB (59%)
  • Title                                    : Tom.and.Jerry.The.Lost.Dragon.2014.720p.BluRay.x264.DTS-RARBG
  • Writing library                          : x264 core 142 r2479 dd79a61
  • Encoding settings                        : cabac=1 / ref=5 / deblock=1:0:0 / analyse=0x3:0x113 / me=umh / subme=7 / psy=1 / psy_rd=1.00:0.00 / mixed_ref=1 / me_range=16 / chroma_me=1 / trellis=1 / 8x8dct=1 / cqm=0 / deadzone=21,11 / fast_pskip=0 / chroma_qp_offset=-2 / threads=12 / lookahead_threads=2 / sliced_threads=0 / nr=0 / decimate=1 / interlaced=0 / bluray_compat=0 / constrained_intra=0 / bframes=3 / b_pyramid=2 / b_adapt=1 / b_bias=0 / direct=3 / weightb=1 / open_gop=0 / weightp=2 / keyint=240 / keyint_min=23 / scenecut=40 / intra_refresh=0 / rc_lookahead=40 / rc=crf / mbtree=1 / crf=20.0 / qcomp=0.60 / qpmin=0 / qpmax=69 / qpstep=4 / ip_ratio=1.40 / aq=1:1.00
  • Language                                 : English
  • Default                                  : Yes
  • Forced                                   : No
  • Audio
  • ID                                       : 2
  • Format                                   : DTS
  • Format/Info                              : Digital Theater Systems
  • Mode                                     : 16
  • Format settings, Endianness              : Big
  • Codec ID                                 : A_DTS
  • Duration                                 : 56mn 41s
  • Bit rate mode                            : Constant
  • Bit rate                                 : 1 509 Kbps
  • Channel(s)                               : 6 channels
  • Channel positions                        : Front: L C R, Side: L R, LFE
  • Sampling rate                            : 48.0 KHz
  • Bit depth                                : 24 bits
  • Compression mode                         : Lossy
  • Stream size                              : 612 MiB (39%)
  • Title                                    : Tom.and.Jerry.The.Lost.Dragon.2014.720p.BluRay.x264.DTS-RARBG
  • Language                                 : English
  • Default                                  : Yes
  • Forced                                   : No

[color=rgb(0, 88, 166) !important]复制代码
Screens:





百度下载地址:http://pan.baidu.com/s/1i3n9XtV 密码:cdqq


360网盘地址:http://yunpan.cn/cgMnFRqcENad4 (提取码:af0e)


迅雷下载地址点击进入迅雷下载

 

Author: 奇咔杂志网

奇咔杂志网

发表评论

此站点使用Akismet来减少垃圾评论。了解我们如何处理您的评论数据